kDescarga: Inception El Origen Dvdrip [2010] Dual Latino Inglés Sub Español
  • Feed RSS


Titulo Original: Inception
Titulo hispano: El Origen
GENERO: Ciencia Ficción
PAIS: Estados Unidos / Reino Unido
AÑO: 2010
Director: Christopher Nolan,
Reparto: Leonardo DiCaprio, Marion Cotillard, Cillian Murphy, Ellen Page
Guión: Christopher Nolan
Música: Hans Zimmer
Productora: Warner Bros. Pictures, Legendary Pictures, Syncopy Production
Género: Ciencia-Ficción

Sinopsis:

En un mundo donde se pude entrar a los sueños de los otros. Cobb (Leonardo DiCaprio) es un ejecutivo que de forma ilegal se filtra en la mente de las personas para sacar o poner información. El procedimiento para hacerlo es mediante un aparato portátil que funciona como una inyección intravenosa a la persona que se quiere filtrar. Cobb ciertamente no trabaja solo, ya que tiene un equipo formado por Arthur (Joseph Gordon-Levitt), Eames (Tom Hardy) y Ariadne (Ellen Page), una joven estudiante que está considerada como la arquitecto de la operación.

El trabajo de este equipo estará en peligro cuando Fischer (Cillian Murphy) se vuelva el presidente de la empresa que tiene trabajando a Cobb. Por lo mismo, el equipo se dispondrá a implantar en la mente de Fischer la idea de dividir la empresa en dos parte. Ahí es donde aparecerá Saito (Ken Watanabe) para chantajear a Cobb por lo que esta haciendo, e involucrar a su esposa llamada Lisa (Marion Cotillard).

IMDB NO:http://www.imdb.com/title/tt1375666/
Director:Christopher Nolan
Writers:Christopher Nolan (written by)
Genrerama | Mystery | Sci-Fi | Thriller

In a world where technology exists to enter the human mind through dream invasion,
a single idea within one's mind can be the most dangerous weapon or the most valuable
asset.

eneral
Format                           : AVI
Format/Info                      : Audio Video Interleave
File size                        : 1.41 GiB
Duration                         : 2h 10mn
Overall bit rate                 : 1 545 Kbps
Writing library                  : VirtualDub build 32661/release

Video
ID                               : 0
Format                           : MPEG-4 Visual
Format profile                   : AdvancedSimple@L5
Format settings, BVOP            : Yes
Format settings, QPel            : No
Format settings, GMC             : No warppoints
Format settings, Matrix          : Default (H.263)
Muxing mode                      : Packed bitstream
Codec ID                         : XVID
Codec ID/Hint                    : XviD
Duration                         : 2h 10mn
Bit rate                         : 1 347 Kbps
Width                            : 640 pixels
Height                           : 352 pixels
Display aspect ratio             : 16:9
Frame rate                       : 29.970 fps
Resolution                       : 24 bits
Colorimetry                      : 4:2:0
Scan type                        : Progressive
Bits/(Pixel*Frame)               : 0.200
Stream size                      : 1.23 GiB (87%)
Writing library                  : XviD 1.2.1 (UTC 2008-12-04)

Audio
ID                               : 1
Format                           : MPEG Audio
Format version                   : Version 1
Format profile                   : Layer 3
Codec ID                         : 55
Codec ID/Hint                    : MP3
Duration                         : 2h 10mn
Bit rate mode                    : Constant
Bit rate                         : 128 Kbps
Channel(s)                       : 2 channels
Sampling rate                    : 44.1 KHz
Resolution                       : 16 bits
Stream size                      : 120 MiB (8%)
Alignment                        : Split accross interleaves

http://hotfile.com/dl/56741429/fa4d8c9/Incpt.cam.serxi.avi.part1.rar.html
http://hotfile.com/dl/56738866/fff0e2d/Incpt.cam.serxi.avi.part2.rar.html
http://hotfile.com/dl/56739491/bf31768/Incpt.cam.serxi.avi.part3.rar.html
http://hotfile.com/dl/56739739/08de625/Incpt.cam.serxi.avi.part4.rar.html
http://hotfile.com/dl/56739905/1dc38d1/Incpt.cam.serxi.avi.part5.rar.html
http://hotfile.com/dl/56740041/3393e8a/Incpt.cam.serxi.avi.part6.rar.html

http://www.megaupload.com/?d=0DOKCDAP
http://www.megaupload.com/?d=FRCG4R40
http://www.megaupload.com/?d=G7NMDT1F
http://www.megaupload.com/?d=MS8I3VBN
http://www.megaupload.com/?d=OQH8XIXZ
http://www.megaupload.com/?d=SB9MGHOK
http://www.megaupload.com/?d=CIGQHDPS
http://www.megaupload.com/?d=DZBO1GFN
http://www.megaupload.com/?d=V7SMGIPL
http://www.megaupload.com/?d=2S06JXAY
http://www.megaupload.com/?d=YA1Q41OX
http://www.megaupload.com/?d=KUJZ062W
http://www.megaupload.com/?d=O4AGXVLY

0 comentarios:

Publicar un comentario

Subscribe via email

directorio de blogs

Redes Sociales - Compartir

BlogESfera Directorio de Blogs Hispanos - Agrega tu Blog

¿Le gusta este Blog?